<?xml version="1.0" standalone="no"?>
<!DOCTYPE svg PUBLIC "-//W3C//DTD SVG 1.1//EN" "http://www.w3.org/Graphics/SVG/1.1/DTD/svg11.dtd" >
<svg xmlns="http://www.w3.org/2000/svg">
<metadata>Generated by IcoMoon</metadata>
<defs>
<font id="Aptitud-Emprendedora" horiz-adv-x="1024">
<font-face units-per-em="1024" ascent="960" descent="-64" />
<missing-glyph horiz-adv-x="1024" />
<glyph unicode="&#x20;" horiz-adv-x="512" d="" />
<glyph unicode="&#xe900;" glyph-name="search" horiz-adv-x="990" d="M633.037 365.425h-31.986l-11.339 10.933c39.68 46.159 63.57 106.086 63.57 171.278 0 145.361-117.828 263.19-263.188 263.19-145.364 0-263.193-117.829-263.193-263.19 0-145.364 117.829-263.192 263.193-263.192 65.188 0 125.116 23.89 171.274 63.57l10.933-11.339v-31.986l202.455-202.049 60.331 60.331-202.049 202.455zM390.093 365.425c-100.824 0-182.211 81.388-182.211 182.211 0 100.821 81.387 182.208 182.211 182.208 100.82 0 182.207-81.387 182.207-182.208 0-100.823-81.388-182.211-182.207-182.211z" />
<glyph unicode="&#xe901;" glyph-name="arrow-left" horiz-adv-x="640" d="M640 56.32l-390.827 391.68 390.827 391.68-120.32 120.32-512-512 512-512 120.32 120.32z" />
<glyph unicode="&#xe902;" glyph-name="arrow-right" horiz-adv-x="640" d="M0 56.32l390.827 391.68-390.827 391.68 120.32 120.32 512-512-512-512-120.32 120.32z" />
<glyph unicode="&#xe903;" glyph-name="cohete-v3" horiz-adv-x="1157" d="M279.999 428.211l-53.952 93.446 66.634 120.751 300.065-14.826-40.008-32.501c-59.874-51.024-115.948-104.556-137.577-124.097l-7.798-6.853-51.823 12.396-75.541-48.316zM273.526 520.858l20.359-35.262 52.621 35.082 47.278-12.668c19.867 18.523 53.566 49.733 92.555 83.997l-170.99 7.067-41.823-78.216zM464.243 109.089l-52.933 91.684 76.833 42.006 14.158 52.838 19.667 6.653c46.661 12.836 109.463 30.288 166.425 53.774l49.916 19.412-136.175-269.035-137.891 2.668zM466.932 185.867l21.377-37.025 90.412-1.871 76.595 152.36c-42.864-15.343-84.975-27.903-118.278-35.375l-12.668-47.276-57.438-30.814zM456.335 240.864l-119.1 206.287 10.306 10.652c7.798 6.852 170.185 173.483 277.735 235.578 190.42 109.938 357.033 8.66 364.627 3.644l8.618-6.78 0.542-9.088c0.548-9.089 6.714-202.999-185.466-313.953-107.553-62.093-334.815-120.428-342.886-122.742l-14.378-3.598zM387.768 441.063l87.543-151.628c52.967 14.126 230.518 64.916 318.671 115.812 146.343 84.489 163.386 225.977 163.713 266.13-36.698 18.776-165.993 75.775-312.331-8.713-86.121-54.424-218.88-182.791-257.596-221.6zM676.615 506.748c-25.451 44.078-11.563 101.462 34.279 127.929 44.076 25.448 101.459 11.563 127.928-34.279 26.463-45.841 11.563-101.463-34.279-127.929-44.076-25.449-102.483-9.8-127.928 34.279zM801.798 579.022c-14.253 24.683-45.864 34.644-72.311 19.375s-34.644-45.861-19.373-72.308c14.253-24.684 45.859-34.644 72.305-19.375s33.626 47.624 19.379 72.308zM153.707 207.199l13.014 26.325c7.997 18.72 55.036 116.404 93.826 138.799 44.078 25.445 99.699 10.544 125.148-33.537 25.448-44.076 10.544-99.699-33.534-125.144-37.026-21.377-145.142-13.273-167.117-11.856l-31.337 5.413zM347.651 319.175c-14.251 24.681-44.843 32.879-69.526 18.631-15.869-9.161-43.187-55.495-62.708-94.977 45.715-1.816 97.737-2.341 113.605 6.819 24.684 14.253 32.881 44.846 18.63 69.527z" />
<glyph unicode="&#xe904;" glyph-name="cohete-v2" horiz-adv-x="824" d="M598.434 260.322l92.709 31.601 26.641 122.322-213.87 169.206 7.909-46.116c10.412-70.644 16.73-140.731 19.83-167.009l1.231-9.343 42.815-22.503 22.735-78.159zM658.227 319.752l-34.984-11.925-14.985 55.418-39.873 19.601c-2.503 24.529-6.874 65.993-13.034 112.704l121.048-97.364-18.172-78.434zM281.826 152.405l90.96 31.005-27.387 74.62 21.906 44.564-9.461 16.3c-24.208 36.654-56.685 86.11-81.569 136.202l-22.499 43.095-67.755-265.198 95.804-80.587zM325.877 206.469l-36.733-12.52-62.889 52.757 38.728 149.872c20.114-36.098 41.38-69.85 59.667-94.857l-19.601-39.873 20.828-55.379zM365.99 237.71l204.658 69.759-0.674 13.437c-1.232 9.343-12.592 220.24-48.962 326.942-64.393 188.916-238.754 219.297-246.943 220.41l-9.939 0.518-5.804-5.883c-5.804-5.883-125.909-134.682-60.92-325.347 36.37-106.702 156.778-282.383 160.912-288.783l7.672-11.053zM532.486 333.51l-150.433-51.276c-27.746 41.306-118.697 182.12-148.509 269.582-49.487 145.186 23.428 252.041 47.202 279.669 36.295-9.105 158.698-47.435 208.184-192.619 26.313-88.653 40.299-255.702 43.556-305.356zM374.394 551.015c43.731 14.905 68.539 62.411 53.037 107.89-14.905 43.731-62.411 68.54-107.89 53.037s-68.54-62.411-53.038-107.89c14.906-43.731 64.161-67.944 107.891-53.037zM332.062 675.21c24.489 8.347 52.038-3.74 60.982-29.978s-3.74-52.038-29.978-60.981c-24.489-8.348-52.038 3.74-60.981 29.977s5.489 52.634 29.977 60.982zM552.63 33.846l6.839 25.758c5.725 17.575 31.968 112.424 18.851 150.907-14.905 43.73-61.815 66.79-105.545 51.884s-66.791-61.815-51.884-105.545c12.52-36.73 91.232-95.814 107.093-107.977l24.647-15.027zM487.045 226.258c24.489 8.347 50.289-4.336 58.636-28.825 5.366-15.743-3.661-63.726-13.919-102.363-32.319 26.075-68.176 56.809-73.542 72.552-8.347 24.489 4.336 50.289 28.825 58.637z" />
<glyph unicode="&#xe905;" glyph-name="cohete-v1" horiz-adv-x="840" d="M230.785 259.123l-92.433 31.559-26.592 122.031 213.174 168.703-7.873-45.999c-10.362-70.464-16.643-140.376-19.726-166.588l-1.225-9.318-42.678-22.431-22.646-77.957zM171.159 318.43l34.88-11.909 14.925 55.275 39.746 19.537c2.489 24.467 6.836 65.826 12.964 112.421l-120.652-97.077 18.137-78.248zM546.342 151.481l-90.691 30.963 27.284 74.424-21.851 44.461 9.427 16.255c24.124 36.554 56.489 85.874 81.285 135.832l22.419 42.979 67.617-264.566-95.491-80.349zM502.411 205.428l36.625-12.503 62.683 52.601-38.649 149.515c-20.043-36-41.236-69.661-59.459-94.598l19.551-39.781-20.75-55.233zM462.5 236.583l-204.048 69.66 0.67 13.403c1.226 9.32 12.501 219.694 48.733 326.12 64.151 188.428 237.971 218.673 246.134 219.781l9.908 0.513 5.788-5.871c5.788-5.871 125.556-134.395 60.811-324.568-36.234-106.426-156.231-281.632-160.351-288.016l-7.646-11.021zM296.491 332.205l149.984-51.203c27.652 41.195 118.29 181.63 147.99 268.866 49.3 144.811-23.415 251.43-47.124 278.998-36.183-9.070-158.2-47.262-207.502-192.072-26.21-88.426-40.113-255.059-43.349-304.589zM454.061 549.134c-43.595 14.883-68.338 62.275-52.895 107.632 14.848 43.613 62.197 68.34 107.537 52.862 45.338-15.479 68.336-62.275 52.895-107.632-14.848-43.612-63.941-67.744-107.537-52.862zM496.23 672.994c-24.413 8.334-51.872-3.711-60.781-29.878s3.739-51.905 29.897-60.835c24.413-8.335 51.872 3.71 60.781 29.878 8.909 26.167-5.484 52.5-29.897 60.835zM276.412 33.203l-6.824 25.698c-5.712 17.529-31.895 112.156-18.828 150.539 14.849 43.616 61.607 66.602 105.205 51.717s66.598-61.685 51.749-105.303c-12.473-36.637-90.925-95.541-106.735-107.67l-24.567-14.982zM341.747 225.113c-24.415 8.336-50.131-4.306-58.447-28.731-5.346-15.701 3.664-63.569 13.9-102.118 32.213 26.004 67.952 56.647 73.296 72.348 8.315 24.425-4.334 50.165-28.749 58.501z" />
<glyph unicode="&#xe906;" glyph-name="facebook" horiz-adv-x="492" d="M449.327 453.21h-138.866v-508.744h-210.396v508.744h-100.065v178.794h100.065v115.7c0 82.738 39.302 212.296 212.269 212.296l155.847-0.652v-173.55h-113.077c-18.548 0-44.629-9.267-44.629-48.735v-105.225h157.235l-18.383-178.627z" />
<glyph unicode="&#xe907;" glyph-name="instagram" d="M0 654.148c3.377 23.849 5.95 47.834 10.242 71.509 24.331 134.1 119.269 225.34 255.015 230.016 163.441 5.616 327.379 5.913 490.796 0.025 147.742-5.319 254.741-114.717 259.354-262.511 4.911-156.935 4.911-314.255 0-471.188-4.612-147.793-111.573-257.182-259.341-262.511-163.418-5.901-327.394-6.050-490.797 0.085-147.769 5.555-249.918 115.2-259.802 263.215-0.854 12.804-3.6 25.493-5.467 38.238 0 131.042 0 262.089 0 393.122zM509.683 47.078c74.786 0 149.649-2.24 224.337 0.516 117.107 4.343 189.133 74.231 191.868 191.228 3.388 145.775 3.388 291.75 0 437.542-2.735 116.968-74.812 188.49-191.868 190.976-148.574 3.142-297.306 3.117-445.879 0-116.165-2.437-188.404-72.512-191.558-188.193-4.008-147.623-4.008-295.501 0-443.124 3.154-115.669 75.394-184.124 191.571-188.429 73.748-2.743 147.682-0.516 221.53-0.516zM509.525 717.187c-143.416 0-259.692-116.263-259.692-259.677 0-143.428 116.276-259.691 259.692-259.691 143.424 0 259.691 116.262 259.691 259.691 0 143.414-116.267 259.677-259.691 259.677zM509.525 287.228c-94.048 0-170.284 76.233-170.284 170.283 0 94.046 76.235 170.281 170.284 170.281 94.046 0 170.283-76.235 170.283-170.281 0-94.050-76.237-170.283-170.283-170.283zM846.187 729.036c0-34.116-27.661-61.775-61.773-61.775-34.116 0-61.79 27.659-61.79 61.775 0 34.128 27.674 61.787 61.79 61.787 34.112 0 61.773-27.659 61.773-61.787z" />
<glyph unicode="&#xe908;" glyph-name="linkedin" horiz-adv-x="1073" d="M1033.001 354.845v-381.967h-221.457v356.367c0 89.483-31.973 150.588-112.152 150.588-61.191 0-97.543-41.137-113.596-80.976-5.827-14.234-7.329-34.002-7.329-53.97v-371.99h-221.472c0 0 2.973 603.567 0 666.044h221.487v-94.385c-0.444-0.743-1.073-1.47-1.468-2.18h1.468v2.18c29.433 45.285 81.915 110.025 199.587 110.025 145.701 0 254.932-95.194 254.932-299.737zM125.318 960c-75.756 0-125.318-49.727-125.318-115.062 0-63.947 48.126-115.112 122.411-115.112h1.437c77.242 0 125.268 51.164 125.268 115.112-1.47 65.335-48.027 115.062-123.799 115.062zM13.163-27.121h221.388v666.064h-221.388v-666.064z" />
<glyph unicode="&#xe909;" glyph-name="youtube" horiz-adv-x="1451" d="M1420.352 799.779c-16.683 63.067-65.839 112.736-128.252 129.592-113.131 30.629-566.767 30.629-566.767 30.629s-453.634 0-566.766-30.629c-62.414-16.859-111.57-66.525-128.254-129.592-30.313-114.312-30.313-352.815-30.313-352.815s0-238.498 30.313-352.811c16.684-63.066 65.841-110.669 128.254-127.522 113.132-30.63 566.766-30.63 566.766-30.63s453.632 0 566.767 30.63c62.413 16.853 111.569 64.457 128.252 127.522 30.315 114.313 30.315 352.811 30.315 352.811s0 238.504-30.315 352.815zM576.969 230.426v433.081l379.149-216.548-379.149-216.533z" />
<glyph unicode="&#xe90a;" glyph-name="pencil" d="M864 960c88.364 0 160-71.634 160-160 0-36.020-11.91-69.258-32-96l-64-64-224 224 64 64c26.742 20.090 59.978 32 96 32zM64 224l-64-288 288 64 592 592-224 224-592-592zM715.578 596.422l-448-448-55.156 55.156 448 448 55.156-55.156z" />
<glyph unicode="&#xe977;" glyph-name="quotes-left" d="M225 512c123.712 0 224-100.29 224-224 0-123.712-100.288-224-224-224s-224 100.288-224 224l-1 32c0 247.424 200.576 448 448 448v-128c-85.474 0-165.834-33.286-226.274-93.726-11.634-11.636-22.252-24.016-31.83-37.020 11.438 1.8 23.16 2.746 35.104 2.746zM801 512c123.71 0 224-100.29 224-224 0-123.712-100.29-224-224-224s-224 100.288-224 224l-1 32c0 247.424 200.576 448 448 448v-128c-85.474 0-165.834-33.286-226.274-93.726-11.636-11.636-22.254-24.016-31.832-37.020 11.44 1.8 23.16 2.746 35.106 2.746z" />
<glyph unicode="&#xe978;" glyph-name="quotes-right" d="M800 320c-123.712 0-224 100.29-224 224 0 123.712 100.288 224 224 224s224-100.288 224-224l1-32c0-247.424-200.576-448-448-448v128c85.474 0 165.834 33.286 226.274 93.726 11.634 11.636 22.252 24.016 31.83 37.020-11.438-1.8-23.16-2.746-35.104-2.746zM224 320c-123.71 0-224 100.29-224 224 0 123.712 100.29 224 224 224s224-100.288 224-224l1-32c0-247.424-200.576-448-448-448v128c85.474 0 165.834 33.286 226.274 93.726 11.636 11.636 22.254 24.016 31.832 37.020-11.44-1.8-23.16-2.746-35.106-2.746z" />
<glyph unicode="&#xe9ac;" glyph-name="remove" d="M128 640v-640c0-35.2 28.8-64 64-64h576c35.2 0 64 28.8 64 64v640h-704zM320 64h-64v448h64v-448zM448 64h-64v448h64v-448zM576 64h-64v448h64v-448zM704 64h-64v448h64v-448zM848 832h-208v80c0 26.4-21.6 48-48 48h-224c-26.4 0-48-21.6-48-48v-80h-208c-26.4 0-48-21.6-48-48v-80h832v80c0 26.4-21.6 48-48 48zM576 832h-192v63.198h192v-63.198z" />
<glyph unicode="&#xe9ce;" glyph-name="eye" d="M512 768c-223.318 0-416.882-130.042-512-320 95.118-189.958 288.682-320 512-320 223.312 0 416.876 130.042 512 320-95.116 189.958-288.688 320-512 320zM764.45 598.296c60.162-38.374 111.142-89.774 149.434-150.296-38.292-60.522-89.274-111.922-149.436-150.296-75.594-48.218-162.89-73.704-252.448-73.704-89.56 0-176.858 25.486-252.452 73.704-60.158 38.372-111.138 89.772-149.432 150.296 38.292 60.524 89.274 111.924 149.434 150.296 3.918 2.5 7.876 4.922 11.86 7.3-9.96-27.328-15.41-56.822-15.41-87.596 0-141.382 114.616-256 256-256 141.382 0 256 114.618 256 256 0 30.774-5.452 60.268-15.408 87.598 3.978-2.378 7.938-4.802 11.858-7.302v0zM512 544c0-53.020-42.98-96-96-96s-96 42.98-96 96 42.98 96 96 96 96-42.982 96-96z" />
<glyph unicode="&#xe9d1;" glyph-name="eye-blocked" d="M945.942 945.942c-18.746 18.744-49.136 18.744-67.882 0l-202.164-202.164c-51.938 15.754-106.948 24.222-163.896 24.222-223.318 0-416.882-130.042-512-320 41.122-82.124 100.648-153.040 173.022-207.096l-158.962-158.962c-18.746-18.746-18.746-49.136 0-67.882 9.372-9.374 21.656-14.060 33.94-14.060s24.568 4.686 33.942 14.058l864 864c18.744 18.746 18.744 49.138 0 67.884zM416 640c42.24 0 78.082-27.294 90.92-65.196l-121.724-121.724c-37.902 12.838-65.196 48.68-65.196 90.92 0 53.020 42.98 96 96 96zM110.116 448c38.292 60.524 89.274 111.924 149.434 150.296 3.918 2.5 7.876 4.922 11.862 7.3-9.962-27.328-15.412-56.822-15.412-87.596 0-54.89 17.286-105.738 46.7-147.418l-60.924-60.924c-52.446 36.842-97.202 83.882-131.66 138.342zM768 518c0 27.166-4.256 53.334-12.102 77.898l-321.808-321.808c24.568-7.842 50.742-12.090 77.91-12.090 141.382 0 256 114.618 256 256zM830.026 670.026l-69.362-69.362c1.264-0.786 2.53-1.568 3.786-2.368 60.162-38.374 111.142-89.774 149.434-150.296-38.292-60.522-89.274-111.922-149.436-150.296-75.594-48.218-162.89-73.704-252.448-73.704-38.664 0-76.902 4.76-113.962 14.040l-76.894-76.894c59.718-21.462 123.95-33.146 190.856-33.146 223.31 0 416.876 130.042 512 320-45.022 89.916-112.118 166.396-193.974 222.026z" />
<glyph unicode="&#xea0f;" glyph-name="close" d="M1014.662 137.34c-0.004 0.004-0.008 0.008-0.012 0.010l-310.644 310.65 310.644 310.65c0.004 0.004 0.008 0.006 0.012 0.010 3.344 3.346 5.762 7.254 7.312 11.416 4.246 11.376 1.824 24.682-7.324 33.83l-146.746 146.746c-9.148 9.146-22.45 11.566-33.828 7.32-4.16-1.55-8.070-3.968-11.418-7.31 0-0.004-0.004-0.006-0.008-0.010l-310.648-310.652-310.648 310.65c-0.004 0.004-0.006 0.006-0.010 0.010-3.346 3.342-7.254 5.76-11.414 7.31-11.38 4.248-24.682 1.826-33.83-7.32l-146.748-146.748c-9.148-9.148-11.568-22.452-7.322-33.828 1.552-4.16 3.97-8.072 7.312-11.416 0.004-0.002 0.006-0.006 0.010-0.010l310.65-310.648-310.65-310.652c-0.002-0.004-0.006-0.006-0.008-0.010-3.342-3.346-5.76-7.254-7.314-11.414-4.248-11.376-1.826-24.682 7.322-33.83l146.748-146.746c9.15-9.148 22.452-11.568 33.83-7.322 4.16 1.552 8.070 3.97 11.416 7.312 0.002 0.004 0.006 0.006 0.010 0.010l310.648 310.65 310.648-310.65c0.004-0.002 0.008-0.006 0.012-0.008 3.348-3.344 7.254-5.762 11.414-7.314 11.378-4.246 24.684-1.826 33.828 7.322l146.746 146.748c9.148 9.148 11.57 22.454 7.324 33.83-1.552 4.16-3.97 8.068-7.314 11.414z" />
<glyph unicode="&#xea1c;" glyph-name="play" d="M192 832l640-384-640-384z" />
<glyph unicode="&#xea93;" glyph-name="whatsapp" d="M873 811.2c-95.8 96-223.2 148.8-359 148.8-279.6 0-507.2-227.6-507.2-507.4 0-89.4 23.4-176.8 67.8-253.6l-72-263 269 70.6c74.2-40.4 157.6-61.8 242.4-61.8h0.2c0 0 0 0 0 0 279.6 0 507.4 227.6 507.4 507.4 0 135.6-52.8 263-148.6 359zM514.2 30.4v0c-75.8 0-150 20.4-214.8 58.8l-15.4 9.2-159.6-41.8 42.6 155.6-10 16c-42.4 67-64.6 144.6-64.6 224.4 0 232.6 189.2 421.8 422 421.8 112.6 0 218.6-44 298.2-123.6 79.6-79.8 123.4-185.6 123.4-298.4-0.2-232.8-189.4-422-421.8-422zM745.4 346.4c-12.6 6.4-75 37-86.6 41.2s-20 6.4-28.6-6.4c-8.4-12.6-32.8-41.2-40.2-49.8-7.4-8.4-14.8-9.6-27.4-3.2s-53.6 19.8-102 63c-37.6 33.6-63.2 75.2-70.6 87.8s-0.8 19.6 5.6 25.8c5.8 5.6 12.6 14.8 19 22.2s8.4 12.6 12.6 21.2c4.2 8.4 2.2 15.8-1 22.2s-28.6 68.8-39 94.2c-10.2 24.8-20.8 21.4-28.6 21.8-7.4 0.4-15.8 0.4-24.2 0.4s-22.2-3.2-33.8-15.8c-11.6-12.6-44.4-43.4-44.4-105.8s45.4-122.6 51.8-131.2c6.4-8.4 89.4-136.6 216.6-191.4 30.2-13 53.8-20.8 72.2-26.8 30.4-9.6 58-8.2 79.8-5 24.4 3.6 75 30.6 85.6 60.2s10.6 55 7.4 60.2c-3 5.6-11.4 8.8-24.2 15.2z" />
<glyph unicode="&#xea96;" glyph-name="twitter" d="M1024 733.6c-37.6-16.8-78.2-28-120.6-33 43.4 26 76.6 67.2 92.4 116.2-40.6-24-85.6-41.6-133.4-51-38.4 40.8-93 66.2-153.4 66.2-116 0-210-94-210-210 0-16.4 1.8-32.4 5.4-47.8-174.6 8.8-329.4 92.4-433 219.6-18-31-28.4-67.2-28.4-105.6 0-72.8 37-137.2 93.4-174.8-34.4 1-66.8 10.6-95.2 26.2 0-0.8 0-1.8 0-2.6 0-101.8 72.4-186.8 168.6-206-17.6-4.8-36.2-7.4-55.4-7.4-13.6 0-26.6 1.4-39.6 3.8 26.8-83.4 104.4-144.2 196.2-146-72-56.4-162.4-90-261-90-17 0-33.6 1-50.2 3 93.2-59.8 203.6-94.4 322.2-94.4 386.4 0 597.8 320.2 597.8 597.8 0 9.2-0.2 18.2-0.6 27.2 41 29.4 76.6 66.4 104.8 108.6z" />
</font>
</defs>
</svg>
